首页 » 周边 » [MagicStar] 线人 / インフォーマ EP02 [WEBDL] [1080p] [Netflix]【生】【附日字】

信息

发布代号: 魔星字幕团

发布时间: 2023-01-23 07:21:17

状态统计: 做种 2, 下载 3, 完成 4

健 康 度: 7

Tracker +超展开 -超还原

Announce:

http://open.acgtracker.com:1096/announce

Announce list:
  • udp://tracker4.itzmx.com:2710/announce
  • udp://tracker3.itzmx.com:6961/announce
  • udp://tracker2.itzmx.com:6961/announce
  • udp://tracker1.itzmx.com:8080/announce
  • http://tracker4.itzmx.com:2710/announce
  • http://tracker3.itzmx.com:6961/announce
  • http://tracker2.itzmx.com:6961/announce
  • http://tracker1.itzmx.com:8080/announce
  • udp://tracker.publicbt.com:80/announce
  • http://open.acgtracker.com:1096/announce
  • udp://tracker.openbittorrent.com:80/announce
  • udp://tracker.publicbt.com:80/announce
  • udp://tracker.prq.to:80/announce
  • udp://104.238.198.186:8000/announce
  • http://104.238.198.186:8000/announce
  • http://94.228.192.98/announce
  • http://share.dmhy.org/annonuce
  • http://tracker.btcake.com/announce
  • http://tracker.ktxp.com:6868/announce
  • http://tracker.ktxp.com:7070/announce
  • http://bt.sc-ol.com:2710/announce
  • http://open.acgtracker.com:1096/announce
  • http://btfile.sdo.com:6961/announce
  • https://t-115.rhcloud.com/only_for_ylbud
  • http://tr.bangumi.moe:6969/announce
  • http://exodus.desync.com:6969/announce
  • udp://coppersurfer.tk:6969/announce
  • http://tracker3.torrentino.com/announce
  • http://tracker2.torrentino.com/announce
  • udp://open.demonii.com:1337/announce
  • udp://tracker.ex.ua:80/announce
  • http://pubt.net:2710/announce
  • http://tracker.tfile.me/announce
  • http://bigfoot1942.sektori.org:6969/announce
  • http://t.nyaatracker.com/announce
  • udp://bt.sc-ol.com:2710/announce
  • http://nyaa.tracker.wf:7777/announce

详情


HD 1080p from Netflix.
Japanese subtitles added.
alt text
alt text

General Unique ID                      : 244266506427562662681669845172771508577 (0xB7C40496028B5AE6C87762219E525161) Complete name                  : Informa.EP02.1080p.NF.WEB-DL.DDP2.0.H.264-MagicStar.mkv Format                         : Matroska Format version                 : Version 4 File size                      : 612 MiB Duration                       : 25 min 0 s Overall bit rate mode          : Variable Overall bit rate               : 3 420 kb/s Encoded date                   : UTC 2023-01-20 23:13:44 Writing application            : mkvmerge v50.0.0 ('Awakenings') 64-bit Writing library                : libebml v1.4.0 + libmatroska v1.6.2 Cover                          : Yes Attachments                    : cover.png  Video ID                             : 1 Format                         : AVC Format/Info                    : Advanced Video Codec Format profile                 : [email protected] Format settings                : CABAC / 3 Ref Frames Format settings, CABAC         : Yes Format settings, Reference fra : 3 frames Codec ID                       : V_MPEG4/ISO/AVC Duration                       : 25 min 0 s Bit rate mode                  : Variable Bit rate                       : 3 290 kb/s Nominal bit rate               : 3 557 kb/s Maximum bit rate               : 5 052 kb/s Width                          : 1 920 pixels Height                         : 1 080 pixels Display aspect ratio           : 16:9 Frame rate mode                : Constant Frame rate                     : 23.976 (24000/1001) FPS Color space                    : YUV Chroma subsampling             : 4:2:0 Bit depth                      : 8 bits Scan type                      : Progressive Bits/(Pixel*Frame)             : 0.066 Stream size                    : 588 MiB (96%) Writing library                : x264 core 148 r2727 7d026e8 Encoding settings              : cabac=1 / ref=3 / deblock=1:0:0 / analyse=0x1:0x111 / me=umh / subme=10 / psy=1 / psy_rd=1.00:0.00 / mixed_ref=1 / me_range=24 / chroma_me=1 / trellis=2 / 8x8dct=0 / cqm=0 / deadzone=21,11 / fast_pskip=1 / chroma_qp_offset=-2 / threads=6 / lookahead_threads=1 / sliced_threads=0 / nr=0 / decimate=1 / interlaced=0 / bluray_compat=0 / stitchable=1 / constrained_intra=0 / bframes=2 / b_pyramid=0 / b_adapt=2 / b_bias=0 / direct=3 / weightb=1 / open_gop=0 / weightp=2 / keyint=240 / keyint_min=121 / scenecut=0 / intra_refresh=0 / rc_lookahead=48 / rc=2pass / mbtree=1 / bitrate=3557 / ratetol=1.0 / qcomp=0.50 / qpmin=6 / qpmax=51 / qpstep=4 / cplxblur=20.0 / qblur=0.5 / vbv_maxrate=5052 / vbv_bufsize=8420 / nal_hrd=vbr / filler=0 / ip_ratio=1.40 / aq=1:1.00 Default                        : Yes Forced                         : No  Audio ID                             : 2 Format                         : E-AC-3 Format/Info                    : Enhanced AC-3 Commercial name                : Dolby Digital Plus Codec ID                       : A_EAC3 Duration                       : 25 min 0 s Bit rate mode                  : Constant Bit rate                       : 128 kb/s Channel(s)                     : 2 channels Channel layout                 : L R Sampling rate                  : 48.0 kHz Frame rate                     : 31.250 FPS (1536 SPF) Compression mode               : Lossy Stream size                    : 22.9 MiB (4%) Language                       : Japanese Service kind                   : Complete Main Default                        : Yes Forced                         : No

标签

MagicStar    线人    インフォ マ EP02    WEBDL    1080p    Netflix    附日字    INFORMA EP02    JPN SUB   

文件清单 文件总数:2,文件总大小:611.9MB,特征码:94a29350bc90d11e01d631e4b23547ae78327d1c

 
  • Folder [MagicStar] INFORMA EP02 [WEBDL] [1080p] [Netflix] [JPN_SUB]
    • 视频文件 Informa.EP02.1080p.NF.WEB-DL.DDP2.0.H.264-MagicStar.mkv(611.8MB)
    • 字幕文件 Informa.EP02.1080p.NF.WEB-DL.DDP2.0.H.264-MagicStar.srt(29.9KB)
 

往期吐槽(0)

正在加载留言,请稍候......
我要吐槽(吐槽限制不多于 1000 字)
填写内容
|∀゚ (´゚Д゚`) (;´Д`) (`・ω・) (=゚ω゚)= | ω・´) |-` ) |д` ) |ー` ) |∀` ) (つд⊂) (゚Д゚≡゚Д゚) (^o^)ノ (|||゚Д゚) ( ゚∀゚) ( ´∀`) (*´∀`) (*゚∇゚) (*゚ー゚) ( ゚ 3゚) ( ´ー`) ( ・_ゝ・) ( ´_ゝ`) (*´д`) (・ー・) (・∀・) (ゝ∀・) (〃∀〃) (*゚∀゚*) ( ゚∀。) ( `д´) (`ε´ ) (`ヮ´ ) σ`∀´) ゚∀゚)σ ゚ ∀゚)ノ (╬゚д゚) (|||゚д゚) ( ゚д゚) Σ( ゚д゚) ( ;゚д゚) ( ;´д`) ( д ) ゚ ゚ ( ☉д⊙) ((( ゚д゚))) ( ` ・´) ( ´д`) ( -д-) (>д<) ・゚( ノд`゚) ( TдT) ( ̄∇ ̄) ( ̄3 ̄) ( ̄ー ̄) ( ̄ .  ̄) ( ̄皿 ̄) ( ̄艸 ̄) ( ̄︿ ̄) ( ̄︶ ̄) ヾ(´ω゚`) (*´ω`*) (・ω・) ( ´・ω) (`・ω) (´・ω・`) (`・ω・´) ( `_っ´) ( `ー´) ( ´_っ`) ( ´ρ`) ( ゚ω゚) (o゚ω゚o) ( ^ω^) (。◕∀◕。) /( ◕‿‿◕ )\ ヾ(´ε`ヾ) (ノ゚∀゚)ノ (σ゚д゚)σ (σ゚∀゚)σ |д゚ ) ┃電柱┃ ゚(つд`゚) ゚Å゚ )  ⊂彡☆))д`) ⊂彡☆))д´) ⊂彡☆))∀`) (´∀((☆ミつ
验证码