首页 » 动画 » [DDD] 恋如雨止 After the rain [BDrip 720p HEVC AAC][10bits](附AAC音乐)

信息

发布代号: curry

发布时间: 2018-08-09 23:45:31

状态统计: 做种 80, 下载 0, 完成 15

健 康 度: 10

Tracker +超展开 -超还原

Announce:

http://open.acgtracker.com:1096/announce

Announce list:
  • udp://tracker.publicbt.com:80/announce
  • udp://tracker.openbittorrent.com:80/announce
  • udp://tracker.prq.to:80/announce
  • udp://104.238.198.186:8000/announce
  • http://104.238.198.186:8000/announce
  • http://94.228.192.98/announce
  • http://share.dmhy.org/annonuce
  • http://tracker.btcake.com/announce
  • http://tracker.ktxp.com:6868/announce
  • http://tracker.ktxp.com:7070/announce
  • http://bt.sc-ol.com:2710/announce
  • http://open.acgtracker.com:1096/announce
  • http://btfile.sdo.com:6961/announce
  • https://t-115.rhcloud.com/only_for_ylbud
  • http://tr.bangumi.moe:6969/announce
  • http://exodus.desync.com:6969/announce
  • udp://coppersurfer.tk:6969/announce
  • http://tracker3.torrentino.com/announce
  • http://tracker2.torrentino.com/announce
  • udp://open.demonii.com:1337/announce
  • udp://tracker.ex.ua:80/announce
  • http://pubt.net:2710/announce
  • http://tracker.tfile.me/announce
  • http://bigfoot1942.sektori.org:6969/announce
  • http://t.nyaatracker.com/announce
  • udp://bt.sc-ol.com:2710/announce
  • http://nyaa.tracker.wf:7777/announce

详情 +跨屏阅读


原作非常优秀,动画制作非常非常优秀,不过可能限定单季,要是能把没有做的部分也做出来就好了。

搬运字幕包:UHA字幕社,感谢原字幕组。

General

Complete name : D:\[DDD] 恋如雨止 [BDrip 720p HEVC AAC][10bits]\恋は雨上がりのように 第01話 「雨音」.mp4
Format : MPEG-4
Format profile : Base Media
Codec ID : isom (isom)
File size : 288 MiB
Duration : 22 min 51 s
Overall bit rate mode : Variable
Overall bit rate : 1 759 kb/s
Encoded date : UTC 2018-08-08 13:06:05
Tagged date : UTC 2018-08-08 13:06:05

Video

ID : 1
Format : HEVC
Format/Info : High Efficiency Video Coding
Format profile : Main [email protected]@Main
Codec ID : hev1
Codec ID/Info : High Efficiency Video Coding
Duration : 22 min 51 s
Bit rate : 1 559 kb/s
Maximum bit rate : 16.4 Mb/s
Width : 1 280 pixels
Height : 720 pixels
Display aspect ratio : 16:9
Frame rate mode : Variable
Frame rate : 23.976 (24000/1001) FPS
Minimum frame rate : 23.564 FPS
Maximum frame rate : 24.390 FPS
Color space : YUV
Chroma subsampling : 4:2:0
Bit depth : 10 bits
Bits/(Pixel*Frame) : 0.071
Stream size : 255 MiB (89%)
Writing library : x265 2.72aa737a99f51:[Windows][GCC 7.3.0][64 bit] 10bit
Encoding settings : cpuid=1173503 / frame-threads=3 / numa-pools=8 / wpp / no-pmode / no-pme / no-psnr / no-ssim / log-level=2 / input-csp=1 / input-res=1280x720 / interlace=0 / total-frames=32892 / level-idc=0 / high-tier=1 / uhd-bd=0 / ref=6 / no-allow-non-conformance / no-repeat-headers / annexb / no-aud / no-hrd / info / hash=0 / no-temporal-layers / open-gop / min-keyint=1 / keyint=360 / gop-lookahead=0 / bframes=6 / b-adapt=2 / b-pyramid / bframe-bias=0 / rc-lookahead=50 / lookahead-slices=4 / scenecut=40 / radl=0 / no-intra-refresh / ctu=32 / min-cu-size=8 / no-rect / no-amp / max-tu-size=32 / tu-inter-depth=2 / tu-intra-depth=2 / limit-tu=0 / rdoq-level=1 / dynamic-rd=0.00 / no-ssim-rd / signhide / no-tskip / nr-intra=0 / nr-inter=0 / no-constrained-intra / no-strong-intra-smoothing / max-merge=2 / limit-refs=3 / no-limit-modes / me=1 / subme=2 / merange=44 / temporal-mvp / weightp / no-weightb / no-analyze-src-pics / deblock=0:0 / sao / no-sao-non-deblock / rd=3 / no-early-skip / rskip / no-fast-intra / no-tskip-fast / no-cu-lossless / no-b-intra / no-splitrd-skip / rdpenalty=0 / psy-rd=1.00 / psy-rdoq=3.00 / no-rd-refine / no-lossless / cbqpoffs=0 / crqpoffs=0 / rc=crf / crf=18.0 / qcomp=0.70 / qpstep=4 / stats-write=0 / stats-read=0 / ipratio=1.40 / pbratio=1.30 / aq-mode=1 / aq-strength=1.00 / cutree / zone-count=0 / no-strict-cbr / qg-size=16 / no-rc-grain / qpmax=69 / qpmin=0 / no-const-vbv / sar=1 / overscan=0 / videoformat=5 / range=0 / colorprim=2 / transfer=2 / colormatrix=2 / chromaloc=0 / display-window=0 / max-cll=0,0 / min-luma=0 / max-luma=1023 / log2-max-poc-lsb=8 / vui-timing-info / vui-hrd-info / slices=1 / no-opt-qp-pps / no-opt-ref-list-length-pps / no-multi-pass-opt-rps / scenecut-bias=0.05 / no-opt-cu-delta-qp / no-aq-motion / no-hdr / no-hdr-opt / no-dhdr10-opt / analysis-reuse-level=5 / scale-factor=0 / refine-intra=0 / refine-inter=0 / refine-mv=0 / no-limit-sao / ctu-info=0 / no-lowpass-dct / refine-mv-type=0 / copy-pic=1
Tagged date : UTC 2018-08-08 13:06:12

Audio

ID : 2
Format : AAC
Format/Info : Advanced Audio Codec
Format profile : LC
Codec ID : mp4a-40-2
Duration : 22 min 51 s
Bit rate mode : Variable
Bit rate : 192 kb/s
Maximum bit rate : 275 kb/s
Channel(s) : 2 channels
Channel positions : Front: L R
Sampling rate : 48.0 kHz
Frame rate : 46.875 FPS (1024 SPF)
Compression mode : Lossy
Stream size : 31.9 MiB (11%)
Encoded date : UTC 2018-08-08 11:37:18
Tagged date : UTC 2018-08-08 13:06:12

 

标签

DDD    恋如雨止 After the rain    BDrip    720p    HEVC    AAC    10bit    音乐    恋如雨止   

文件清单 文件总数:46,文件总大小:3.5GB,特征码:379af4590a5ac8eefe79ae07cee8c758bf0aa794

 
  • Folder [DDD] 恋如雨止 [BDrip 720p HEVC AAC][10bits]
    • Folder Ref_rain _ 眩いばかり
      • Unknown 04 Raining.m4a(9.8MB)
      • Unknown 03 After Rain -Scarlet ver.-.m4a(9.8MB)
      • Unknown 01 Ref_rain.m4a(9.4MB)
      • Unknown 02 眩いばかり.m4a(8.4MB)
      • 图片文件 Ref_rain _ 眩いばかり.jpg(368.1KB)
    • Folder ノスタルジックレインフォール
      • Unknown 01. ノスタルジックレインフォール.m4a(7.8MB)
      • 图片文件 ノスタルジックレインフォール.jpg(1.1MB)
    • Folder 恋は雨上がりのように オリジナル·サウンドトラック
      • Unknown 18 Ref_rain (Insturumental Version).m4a(7.2MB)
      • Unknown 01 アフターザレイン~メインテーマ~.m4a(6.3MB)
      • Unknown 19 いつか見る夢.m4a(5.3MB)
      • Unknown 08 風見沢高校.m4a(5.1MB)
      • Unknown 12 アフターザレイン~雨の向こうに~.m4a(4.7MB)
      • Unknown 07 坂を行くバス.m4a(4.7MB)
      • Unknown 09 恋のシークレットキャラ.m4a(4.7MB)
      • Unknown 14 トラックの逃げ水.m4a(4.7MB)
      • Unknown 10 約束の雨.m4a(4.6MB)
      • Unknown 04 月に願いを~スーパームーン~.m4a(4.4MB)
      • Unknown 03 にわか雨~窓たたく雨~.m4a(4.3MB)
      • Unknown 06 ひまわり.m4a(4.3MB)
      • Unknown 02 古い栞~雫のゆくえ~.m4a(4.1MB)
      • Unknown 16 澄んだ夢.m4a(4.1MB)
      • Unknown 11 こごえる紫陽花.m4a(4.1MB)
      • Unknown 05 わくわくガーデン.m4a(3.8MB)
      • Unknown 13 アフタヌーンホール.m4a(3.5MB)
      • Unknown 17 走れ!風のように.m4a(3.2MB)
      • Unknown 15 青い雷雲.m4a(3MB)
    • 视频文件 恋は雨上がりのように 第03話 「雨雫」.mp4(363.5MB)
    • 视频文件 恋は雨上がりのように 最終話 「つゆのあとさき」.mp4(295.1MB)
    • 视频文件 恋は雨上がりのように 第01話 「雨音」.mp4(287.7MB)
    • 视频文件 恋は雨上がりのように 第06話 「沙雨」.mp4(282.9MB)
    • 视频文件 恋は雨上がりのように 第07話 「迅雨」.mp4(281.5MB)
    • 视频文件 恋は雨上がりのように 第09話 「愁雨」.mp4(273.4MB)
    • 视频文件 恋は雨上がりのように 第08話 「静雨」.mp4(271.1MB)
    • 视频文件 恋は雨上がりのように 第11話 「叢雨」.mp4(264.7MB)
    • 视频文件 恋は雨上がりのように 第02話 「青葉雨」.mp4(263.5MB)
    • 视频文件 恋は雨上がりのように 第05話 「香雨」.mp4(260.5MB)
    • 视频文件 恋は雨上がりのように 第04話 「漫ろ雨」.mp4(257.8MB)
    • 视频文件 恋は雨上がりのように 第10話 「白雨」.mp4(246.1MB)
    • 视频文件 恋は雨上がりのように ED.mp4(56.5MB)
    • 视频文件 恋は雨上がりのように OP.mp4(22.6MB)
    • 图片文件 恋は雨上がりのように 第4~6話.jpg(447.4KB)
    • 图片文件 恋は雨上がりのように 第1~3話.jpg(321.7KB)
    • 图片文件 恋は雨上がりのように 第10~最終話.jpg(300.1KB)
    • 图片文件 恋は雨上がりのように 第7~9話.jpg(276.9KB)
    • 压缩文件 恋如雨止(sub-UHA).rar(225.2KB)
    • 文本文件 恋は雨上がりのように.txt(1.3KB)
 

往期吐槽(0)

正在加载留言,请稍候......
我要吐槽(吐槽限制不多于 1000 字)
填写内容
|∀゚ (´゚Д゚`) (;´Д`) (`・ω・) (=゚ω゚)= | ω・´) |-` ) |д` ) |ー` ) |∀` ) (つд⊂) (゚Д゚≡゚Д゚) (^o^)ノ (|||゚Д゚) ( ゚∀゚) ( ´∀`) (*´∀`) (*゚∇゚) (*゚ー゚) ( ゚ 3゚) ( ´ー`) ( ・_ゝ・) ( ´_ゝ`) (*´д`) (・ー・) (・∀・) (ゝ∀・) (〃∀〃) (*゚∀゚*) ( ゚∀。) ( `д´) (`ε´ ) (`ヮ´ ) σ`∀´) ゚∀゚)σ ゚ ∀゚)ノ (╬゚д゚) (|||゚д゚) ( ゚д゚) Σ( ゚д゚) ( ;゚д゚) ( ;´д`) ( д ) ゚ ゚ ( ☉д⊙) ((( ゚д゚))) ( ` ・´) ( ´д`) ( -д-) (>д<) ・゚( ノд`゚) ( TдT) ( ̄∇ ̄) ( ̄3 ̄) ( ̄ー ̄) ( ̄ .  ̄) ( ̄皿 ̄) ( ̄艸 ̄) ( ̄︿ ̄) ( ̄︶ ̄) ヾ(´ω゚`) (*´ω`*) (・ω・) ( ´・ω) (`・ω) (´・ω・`) (`・ω・´) ( `_っ´) ( `ー´) ( ´_っ`) ( ´ρ`) ( ゚ω゚) (o゚ω゚o) ( ^ω^) (。◕∀◕。) /( ◕‿‿◕ )\ ヾ(´ε`ヾ) (ノ゚∀゚)ノ (σ゚д゚)σ (σ゚∀゚)σ |д゚ ) ┃電柱┃ ゚(つд`゚) ゚Å゚ )  ⊂彡☆))д`) ⊂彡☆))д´) ⊂彡☆))∀`) (´∀((☆ミつ
验证码